<?xml version="1.0" standalone="no"?>
<!DOCTYPE svg PUBLIC "-//W3C//DTD SVG 1.1//EN" "http://www.w3.org/Graphics/SVG/1.1/DTD/svg11.dtd" >
<svg xmlns="http://www.w3.org/2000/svg">
<metadata>Generated by IcoMoon</metadata>
<defs>
<font id="mb-icons" horiz-adv-x="1024">
<font-face units-per-em="1024" ascent="960" descent="-64" />
<missing-glyph horiz-adv-x="1024" />
<glyph unicode="&#x20;" horiz-adv-x="512" d="" />
<glyph unicode="&#xe900;" glyph-name="play" d="M1024 448l-853.333-512v1024l853.333-512z" />
<glyph unicode="&#xe901;" glyph-name="shapes-square" horiz-adv-x="2389" d="M2218.667 960h-682.667c-93.867 0-170.667-76.8-170.667-170.667v-170.667h-341.333v170.667c0 93.867-76.8 170.667-170.667 170.667h-682.667c-93.867 0-170.667-76.8-170.667-170.667v-682.667c0-93.867 76.8-170.667 170.667-170.667h682.667c93.867 0 170.667 76.8 170.667 170.667v426.667h341.333v-426.667c0-93.867 76.8-170.667 170.667-170.667h682.667c93.867 0 170.667 76.8 170.667 170.667v682.667c0 93.867-76.8 170.667-170.667 170.667zM938.667 106.667c0-51.2-34.133-85.333-85.333-85.333h-682.667c-51.2 0-85.333 34.133-85.333 85.333v682.667c0 51.2 34.133 85.333 85.333 85.333h682.667c51.2 0 85.333-34.133 85.333-85.333v-682.667zM2304 106.667c0-51.2-34.133-85.333-85.333-85.333h-682.667c-51.2 0-85.333 34.133-85.333 85.333v682.667c0 51.2 34.133 85.333 85.333 85.333h682.667c51.2 0 85.333-34.133 85.333-85.333v-682.667z" />
<glyph unicode="&#xe902;" glyph-name="microphone" d="M469.333 874.667c70.827 0 128-57.173 128-128v-256c0-70.827-57.173-128-128-128s-128 57.173-128 128v256c0 70.827 57.173 128 128 128zM469.333 960c-117.76 0-213.333-95.573-213.333-213.333v-256c0-117.76 95.573-213.333 213.333-213.333s213.333 95.573 213.333 213.333v256c0 117.76-95.573 213.333-213.333 213.333v0zM853.333 499.2h-85.333c0-164.693-133.973-307.2-298.667-307.2s-298.667 142.507-298.667 307.2h-85.333c0-197.12 149.333-365.227 341.333-388.267v-174.933h85.333v174.933c192 22.187 341.333 190.293 341.333 388.267z" />
<glyph unicode="&#xe903;" glyph-name="trash" d="M597.333 144.213v522.24c0 20.48 18.773 37.547 42.667 37.547s42.667-17.067 42.667-37.547v-522.24c0-20.48-18.773-37.547-42.667-37.547s-42.667 17.067-42.667 37.547zM384 106.667c23.893 0 42.667 17.067 42.667 37.547v522.24c0 20.48-18.773 37.547-42.667 37.547s-42.667-17.067-42.667-37.547v-522.24c0-20.48 18.773-37.547 42.667-37.547zM1024 832c0-23.893-17.067-42.667-37.547-42.667h-47.787v-768c0-46.933-38.4-85.333-85.333-85.333h-681.813c-46.933 0-85.333 38.4-85.333 85.333v768h-47.787c-20.48 0-37.547 18.773-37.547 42.667s17.067 42.667 37.547 42.667h341.333c-20.48 0-37.547 18.773-37.547 42.667s17.067 42.667 37.547 42.667h266.24c20.48 0 37.547-18.773 37.547-42.667s-17.067-42.667-37.547-42.667h341.333c20.48 0 37.547-18.773 37.547-42.667v0zM853.333 789.333h-682.667v-768h682.667v768z" />
<glyph unicode="&#xe904;" glyph-name="sale" d="M494.080 874.667h1.707l442.027-447.147-409.6-405.333-442.88 443.733 2.56 408.747h405.333zM494.080 960h-406.187c-48.64 0-87.893-39.253-87.893-87.893v-405.333c0-23.040 9.387-46.080 25.6-62.293l442.027-442.027c17.067-17.067 40.107-25.6 62.293-25.6s45.227 8.533 62.293 25.6l405.333 405.333c34.133 34.133 34.133 90.453 0 124.587l-442.027 442.027c-16.213 16.213-39.253 25.6-62.293 25.6 0 0 0.853 0 0.853 0zM426.667 661.333c0 70.827-57.173 128-128 128s-128-57.173-128-128 57.173-128 128-128 128 57.173 128 128z" />
<glyph unicode="&#xe905;" glyph-name="zoom-out" d="M385.707 960c-213.333 0-385.707-171.52-385.707-384s172.373-384 385.707-384c89.6 0 171.52 31.573 237.227 83.627l340.48-339.627 60.587 60.587-339.627 338.773c53.76 65.707 87.040 149.333 87.040 240.64 0 212.48-172.373 384-384.853 384h-0.853zM385.707 277.333c-165.547 0-299.52 133.973-299.52 298.667s134.827 298.667 299.52 298.667 299.52-133.973 299.52-298.667-134.827-298.667-299.52-298.667v0zM599.040 618.667h-427.52v-85.333h428.373v85.333z" />
<glyph unicode="&#xe906;" glyph-name="zoom-in" d="M385.707 960c-213.333 0-385.707-171.52-385.707-384s172.373-384 385.707-384c89.6 0 171.52 31.573 237.227 83.627l340.48-339.627 60.587 60.587-339.627 338.773c53.76 65.707 87.040 149.333 87.040 240.64 0 212.48-172.373 384-384.853 384h-0.853zM385.707 277.333c-165.547 0-299.52 133.973-299.52 298.667s134.827 298.667 299.52 298.667 299.52-133.973 299.52-298.667-134.827-298.667-299.52-298.667v0zM428.373 789.333h-85.333v-170.667h-171.52v-85.333h171.52v-170.667h85.333v170.667h171.52v85.333h-171.52v170.667z" />
<glyph unicode="&#xe907;" glyph-name="wishlist" d="M764.587 873.813c49.493 0 87.893-17.067 121.173-55.467 34.987-38.4 52.907-87.040 52.907-147.627 0-34.133-5.12-66.56-17.067-101.547-10.24-32.427-31.573-71.68-63.147-120.32-36.693-52.907-82.773-110.080-137.387-171.52-62.293-69.12-132.267-144.213-208.213-221.013-72.533 73.387-143.36 147.627-208.213 220.16-55.467 62.293-102.4 120.32-136.533 170.667-32.427 49.493-53.76 89.6-64.853 122.88s-17.067 65.707-17.067 99.84c0 60.587 17.067 108.373 53.76 148.48 33.28 37.547 71.68 54.613 120.32 54.613 34.133 0 64-9.387 93.867-29.013 31.573-20.48 60.587-52.053 85.333-93.867l69.973-116.053 74.24 113.493c30.72 46.080 61.44 79.36 92.16 98.987 27.307 17.92 56.32 26.453 88.747 26.453zM764.587 959.147c-48.64 0-93.867-12.8-135.68-40.96-41.813-26.453-80.213-68.267-116.907-123.733-32.427 53.76-69.973 94.72-112.64 122.027-42.667 28.16-89.6 42.667-139.947 42.667-73.387 0-134.827-27.307-184.32-82.773-50.347-54.613-75.093-123.733-75.093-204.8 0-42.667 6.827-85.333 21.333-127.147 13.653-42.667 39.253-89.6 74.24-142.507 35.84-52.053 83.627-112.64 144.213-180.053s136.533-148.48 229.547-241.493l42.667-43.52 42.667 43.52c93.013 93.867 168.96 174.933 229.547 243.2 60.587 67.413 108.373 127.147 144.213 179.2 34.987 52.907 60.587 99.84 74.24 142.507 14.507 42.667 21.333 85.333 21.333 127.147 0 81.067-24.747 150.187-75.093 204.8-49.493 55.467-110.933 82.773-184.32 82.773v0z" />
<glyph unicode="&#xe908;" glyph-name="warning" d="M468.48 192c-23.893 0-42.667-18.773-42.667-42.667s18.773-42.667 42.667-42.667 42.667 18.773 42.667 42.667-18.773 42.667-42.667 42.667v0zM468.48 533.333c-23.893 0-42.667-18.773-42.667-42.667v-170.667c0-23.893 19.627-42.667 42.667-42.667s42.667 18.773 42.667 42.667v170.667c0 23.893-19.627 42.667-42.667 42.667v0zM471.040 704.853l376.32-683.52h-755.2l373.76 682.667h4.267zM468.48 789.333c-29.013 0-58.027-12.8-74.24-39.253l-383.147-698.027c-32.427-52.053 8.533-116.053 74.24-116.053h767.147c65.707 0 106.667 64 74.24 116.053l-383.147 697.173c-16.213 26.453-45.227 39.253-74.24 39.253v0z" />
<glyph unicode="&#xe909;" glyph-name="user" d="M927.573 149.333v0c60.587 84.48 96.427 186.88 96.427 298.667 0 282.453-229.547 512-512 512s-512-229.547-512-512c0-111.787 35.84-214.187 96.427-298.667v0c11.093-15.36 23.040-30.72 36.693-44.373 0-0.853 1.707-1.707 2.56-2.56 12.8-13.653 26.453-27.307 40.96-39.253h0.853c29.867-26.453 62.293-48.64 97.28-67.413 1.707 0 2.56-1.707 4.267-1.707 14.507-7.68 29.867-14.507 46.080-20.48 5.12-1.707 9.387-3.413 14.507-5.12 12.8-4.267 25.6-8.533 39.253-11.947 5.973-1.707 11.947-3.413 17.92-4.267 12.8-3.413 26.453-5.12 40.107-7.68 5.973-0.853 11.093-1.707 17.067-2.56 19.627-2.56 38.4-3.413 58.88-3.413s39.253 1.707 58.88 3.413c5.973 0 11.947 1.707 17.067 2.56 13.653 1.707 27.307 4.267 40.107 7.68 5.973 1.707 11.947 3.413 17.92 4.267 12.8 3.413 26.453 7.68 39.253 11.947 5.12 1.707 9.387 3.413 14.507 5.12 15.36 5.973 30.72 12.8 46.080 20.48 1.707 0 3.413 1.707 4.267 2.56 34.987 18.773 67.413 40.96 97.28 66.56h0.853c14.507 13.653 28.16 26.453 40.96 40.96 0 0.853 1.707 1.707 2.56 2.56 12.8 14.507 24.747 29.013 36.693 44.373v0l-1.707-1.707zM512 874.667c235.52 0 426.667-191.147 426.667-426.667 0-85.333-25.6-165.547-69.973-232.107-92.16 90.453-217.6 146.773-356.693 146.773s-264.533-56.32-356.693-146.773c-43.52 66.56-69.973 146.773-69.973 232.107 0 235.52 191.147 426.667 426.667 426.667zM815.787 149.333c-79.36-81.067-189.44-128-303.787-128s-224.427 46.933-303.787 128v0c79.36 81.067 189.44 128 303.787 128s224.427-46.933 303.787-128v0zM512 448c93.867 0 170.667 76.8 170.667 170.667s-76.8 170.667-170.667 170.667-170.667-76.8-170.667-170.667 76.8-170.667 170.667-170.667zM512 704c46.933 0 85.333-38.4 85.333-85.333s-38.4-85.333-85.333-85.333-85.333 38.4-85.333 85.333 38.4 85.333 85.333 85.333z" />
<glyph unicode="&#xe90a;" glyph-name="trending-now" d="M512 709.12l228.693-381.44 171.52 114.347-47.787-335.36h-704.853l-47.787 335.36 171.52-114.347 46.080 76.8 182.613 304.64zM512 874.667l-256-426.667-256 170.667 85.333-597.333h853.333l85.333 597.333-256-170.667-256 426.667z" />
<glyph unicode="&#xe90b;" glyph-name="success" d="M512 874.667c235.52 0 426.667-191.147 426.667-426.667s-191.147-426.667-426.667-426.667-426.667 191.147-426.667 426.667 191.147 426.667 426.667 426.667zM512 960c-282.453 0-512-229.547-512-512s229.547-512 512-512 512 229.547 512 512-229.547 512-512 512v0zM456.533 247.467l341.333 341.333c17.067 17.067 17.067 43.52 0 60.587s-43.52 17.067-60.587 0l-311.467-311.467-140.8 140.8c-17.067 17.067-43.52 17.067-60.587 0s-17.067-43.52 0-60.587l170.667-170.667c8.533-8.533 19.627-12.8 29.867-12.8s22.187 4.267 29.867 12.8h1.707z" />
<glyph unicode="&#xe90c;" glyph-name="star" d="M512 809.813l66.56-216.747 18.773-60.587h290.987l-188.587-145.067-46.933-35.84 17.067-56.32 69.12-226.987-226.987 174.933-226.987-174.933 69.12 226.987 17.067 56.32-46.933 35.84-188.587 145.067h290.987l18.773 60.587 66.56 216.747zM512 960c-23.893 0-47.787-13.653-55.467-41.813l-91.307-300.373h-306.347c-55.467 0-80.213-70.827-35.84-104.96l250.027-193.707-93.867-307.2c-12.8-40.96 19.627-75.947 56.32-75.947 11.947 0 23.893 3.413 34.987 12.8l241.493 186.027 241.493-186.027c11.093-8.533 23.040-12.8 34.987-12.8 35.84 0 68.267 34.987 56.32 75.947l-93.867 307.2 250.027 193.707c44.373 34.133 20.48 104.96-35.84 104.96h-306.347l-91.307 300.373c-8.533 27.307-32.427 41.813-55.467 41.813v0z" />
<glyph unicode="&#xe90d;" glyph-name="standard-shipping" d="M384 533.333c-23.893 0-42.667 18.773-42.667 42.667s18.773 42.667 42.667 42.667h256c23.893 0 42.667-18.773 42.667-42.667s-18.773-42.667-42.667-42.667h-256zM938.667 874.667v-853.333h-853.333v853.333h853.333zM853.333 789.333h-682.667v-682.667h682.667v682.667z" />
<glyph unicode="&#xe90e;" glyph-name="show" d="M682.667 448c0-94.257-76.41-170.667-170.667-170.667s-170.667 76.41-170.667 170.667c0 94.257 76.41 170.667 170.667 170.667s170.667-76.41 170.667-170.667zM512 704c156.16 0 310.613-93.013 425.813-256-115.2-162.987-269.653-256-425.813-256s-310.613 93.013-425.813 256c115.2 162.987 269.653 256 425.813 256zM512 789.333c-193.707 0-372.053-114.347-499.2-297.813-17.067-23.893-17.067-62.293 0-86.187 128-183.467 306.347-297.813 499.2-297.813s372.053 114.347 499.2 297.813c17.067 23.893 17.067 62.293 0 86.187-128 183.467-306.347 297.813-499.2 297.813v0z" />
<glyph unicode="&#xe90f;" glyph-name="shopping-bag" d="M853.333 704h-85.333c0 141.653-114.347 256-256 256s-256-114.347-256-256h-85.333c-46.933 0-85.333-38.4-85.333-85.333v-597.333c0-46.933 38.4-85.333 85.333-85.333h682.667c46.933 0 85.333 38.4 85.333 85.333v597.333c0 46.933-38.4 85.333-85.333 85.333zM512 874.667c93.867 0 170.667-76.8 170.667-170.667h-341.333c0 93.867 76.8 170.667 170.667 170.667zM170.667 21.333v597.333h85.333v-170.667c0-23.893 18.773-42.667 42.667-42.667s42.667 18.773 42.667 42.667v170.667h341.333v-170.667c0-23.893 18.773-42.667 42.667-42.667s42.667 18.773 42.667 42.667v170.667h85.333v-597.333h-682.667z" />
<glyph unicode="&#xe910;" glyph-name="send" d="M989.867 498.347l-914.773 372.053c-6.827 2.56-13.653 4.267-20.48 4.267-29.013 0-54.613-23.040-54.613-54.613v-743.253c0-31.573 25.6-54.613 54.613-54.613 6.827 0 13.653 1.707 20.48 4.267l914.773 372.053c45.227 18.773 45.227 82.773 0 100.693v0zM85.333 122.027v151.040l307.2 124.587c45.227 18.773 45.227 82.773 0 100.693l-307.2 124.587v151.040l802.133-325.973s-802.133-325.973-802.133-325.973z" />
<glyph unicode="&#xe911;" glyph-name="search" d="M384 960c-212.48 0-384-171.52-384-384s171.52-384 384-384c89.6 0 170.667 31.573 236.373 83.627l339.627-339.627 60.587 60.587-338.773 338.773c53.76 65.707 87.040 149.333 87.040 240.64 0 212.48-171.52 384-384 384h-0.853zM384 277.333c-164.693 0-298.667 133.973-298.667 298.667s133.973 298.667 298.667 298.667 298.667-133.973 298.667-298.667-133.973-298.667-298.667-298.667v0z" />
<glyph unicode="&#xe912;" glyph-name="rocket" d="M936.107 960v0c-261.12 0-366.933-27.307-509.44-169.813h-220.16c-23.040 0-44.373-9.387-60.587-24.747l-145.92-146.773 256-170.667c52.907-35.84 220.16-203.093 256-256l170.667-256 145.92 145.92c16.213 16.213 24.747 37.547 24.747 60.587v221.013c142.507 142.507 168.96 248.32 169.813 509.44 0 47.787-39.253 87.040-87.040 87.040v0zM542.72 289.28c-51.2 58.027-131.413 138.24-189.44 189.44 34.133 110.933 80.213 196.267 133.973 250.027 117.76 117.76 201.387 142.507 450.56 143.36-0.853-251.733-26.453-331.093-145.067-449.707-53.76-53.76-139.947-98.987-250.027-133.973v0zM281.6 533.333l-147.627 98.133 72.533 71.68h153.6l3.413 5.12c-34.133-53.76-61.44-114.347-81.92-174.933v0zM696.32 69.973l-98.133 147.627c60.587 20.48 120.32 46.933 174.080 81.067l-4.267-3.413v-153.6l-71.68-71.68zM256 287.573c25.6 0 49.493-10.24 67.413-28.16s28.16-41.813 28.16-67.413-10.24-49.493-28.16-67.413c-21.333-21.333-34.987-25.6-107.52-41.813-25.6-5.12-54.613-11.947-90.453-20.48 8.533 34.987 15.36 64.853 20.48 89.6 16.213 73.387 19.627 86.187 41.813 107.52 17.92 17.92 41.813 28.16 67.413 28.16zM256 372.907c-46.080 0-93.013-17.92-128-52.907-70.827-70.827-42.667-128-128-384 256 85.333 313.173 57.173 384 128s70.827 185.173 0 256c-34.987 34.987-81.92 52.907-128 52.907v0zM682.667 704c46.933 0 85.333-38.4 85.333-85.333s-38.4-85.333-85.333-85.333-85.333 38.4-85.333 85.333 38.4 85.333 85.333 85.333zM682.667 789.333c-93.867 0-170.667-76.8-170.667-170.667s76.8-170.667 170.667-170.667 170.667 76.8 170.667 170.667-76.8 170.667-170.667 170.667v0z" />
<glyph unicode="&#xe913;" glyph-name="phone" d="M938.667 277.333h-256c-46.933 0-85.333-38.4-85.333-85.333v-67.413c-175.787 89.6-319.147 232.96-408.747 408.747h67.413c46.933 0 85.333 38.4 85.333 85.333v256c0 46.933-38.4 85.333-85.333 85.333h-170.667c-47.787 0-85.333-41.813-81.067-89.6 42.667-494.080 436.053-887.467 930.133-930.133 47.787-4.267 89.6 33.28 89.6 81.067v170.667c0 46.933-38.4 85.333-85.333 85.333zM256 874.667v-256h-105.813c-31.573 80.213-52.907 166.4-60.587 256h166.4zM682.667 86.187v104.96h256v-166.4c-89.6 7.68-175.787 29.013-256 60.587v0z" />
<glyph unicode="&#xe914;" glyph-name="order" d="M1024 960h-768l-256-256v-768h853.333l170.667 256v768zM893.44 874.667l-125.44-170.667h-304.64l170.667 170.667h259.413zM517.12 874.667l-170.667-170.667h-230.4l170.667 170.667h230.4zM853.333 89.6v587.947l85.333 116.053v-576l-85.333-128zM85.333 31.573v576h682.667v-576h-682.667zM554.667 448h-256c-23.893 0-42.667-18.773-42.667-42.667s18.773-42.667 42.667-42.667h256c23.893 0 42.667 18.773 42.667 42.667s-18.773 42.667-42.667 42.667v0z" />
<glyph unicode="&#xe915;" glyph-name="minimize" d="M256 955.733v-256h-256v-85.333h256c46.933 0 85.333 38.4 85.333 85.333v256s-85.333 0-85.333 0zM768-64v256h256v85.333h-256c-46.933 0-85.333-38.4-85.333-85.333v-256h85.333zM1024 704h-256v256h-85.333v-256c0-46.933 38.4-85.333 85.333-85.333h256v85.333zM0 192h256v-256h85.333v256c0 46.933-38.4 85.333-85.333 85.333h-256v-85.333z" />
<glyph unicode="&#xe916;" glyph-name="menu" d="M1024 832c0-23.893-18.773-42.667-42.667-42.667h-938.667c-23.893 0-42.667 18.773-42.667 42.667s18.773 42.667 42.667 42.667h938.667c23.893 0 42.667-18.773 42.667-42.667zM981.333 533.333h-938.667c-23.893 0-42.667-18.773-42.667-42.667s18.773-42.667 42.667-42.667h938.667c23.893 0 42.667 18.773 42.667 42.667s-18.773 42.667-42.667 42.667zM981.333 192h-938.667c-23.893 0-42.667-18.773-42.667-42.667s18.773-42.667 42.667-42.667h938.667c23.893 0 42.667 18.773 42.667 42.667s-18.773 42.667-42.667 42.667z" />
<glyph unicode="&#xe917;" glyph-name="maximize" d="M85.333 618.667v256h256v85.333h-256c-46.933 0-85.333-38.4-85.333-85.333v-256h85.333zM938.667 277.333v-256h-256v-85.333h256c46.933 0 85.333 38.4 85.333 85.333v256h-85.333zM682.667 874.667h256v-256h85.333v256c0 46.933-38.4 85.333-85.333 85.333h-256v-85.333zM341.333 21.333h-256v256h-85.333v-256c0-46.933 38.4-85.333 85.333-85.333h256v85.333z" />
<glyph unicode="&#xe918;" glyph-name="mail" d="M938.667 789.333h-853.333c-46.933 0-85.333-38.4-85.333-85.333v-512c0-46.933 38.4-85.333 85.333-85.333h853.333c46.933 0 85.333 38.4 85.333 85.333v512c0 46.933-38.4 85.333-85.333 85.333zM870.4 704l-284.16-226.987c-43.52-34.987-104.96-34.987-148.48 0l-284.16 226.987h716.8zM85.333 704v0zM85.333 192v457.387l298.667-238.933c37.547-29.867 82.773-45.227 128-45.227s90.453 15.36 128 45.227l298.667 238.933v-457.387h-853.333z" />
<glyph unicode="&#xe919;" glyph-name="loader-spinner" d="M813.227 749.227c77.653-77.653 125.44-184.32 125.44-301.227 0-235.52-191.147-426.667-426.667-426.667s-426.667 191.147-426.667 426.667h-85.333c0-282.453 229.547-512 512-512s512 229.547 512 512c0 141.653-57.173 269.653-150.187 361.813 0 0-60.587-60.587-60.587-60.587z" />
<glyph unicode="&#xe91a;" glyph-name="info" d="M469.333 21.333c-211.627 0-384 172.373-384 384s172.373 384 384 384 384-172.373 384-384-172.373-384-384-384zM469.333-64c259.413 0 469.333 209.92 469.333 469.333s-209.92 469.333-469.333 469.333-469.333-209.92-469.333-469.333 209.92-469.333 469.333-469.333v0zM469.333 618.667c23.893 0 42.667 18.773 42.667 42.667s-18.773 42.667-42.667 42.667-42.667-18.773-42.667-42.667 18.773-42.667 42.667-42.667v0zM469.333 106.667c23.893 0 42.667 18.773 42.667 42.667v341.333c0 23.893-19.627 42.667-42.667 42.667s-42.667-18.773-42.667-42.667v-341.333c0-23.893 19.627-42.667 42.667-42.667v0z" />
<glyph unicode="&#xe91b;" glyph-name="hide" d="M146.773 861.867c-17.067 16.213-43.52 16.213-60.587 0s-17.067-42.667 0-58.88l124.587-121.173c-73.387-48.64-140.8-113.493-197.973-192-17.067-23.040-17.067-60.587 0-83.627 128-178.347 306.347-289.28 499.2-289.28 78.507 0 154.453 19.627 226.133 53.76l140.8-136.533c17.067-16.213 43.52-16.213 60.587 0s17.067 42.667 0 58.88l-792.747 768.853zM512 198.827c-156.16 0-310.613 90.453-425.813 249.173 54.613 74.24 117.76 132.267 186.027 174.080l93.013-90.453c-38.4-64-29.867-146.773 25.6-200.533 56.32-54.613 141.653-62.293 206.507-24.747l75.093-73.387c-52.907-21.333-106.667-33.28-161.28-33.28v0zM1011.2 405.333c-40.107-56.32-86.187-104.107-134.827-145.92l-60.587 58.88c43.52 35.84 84.48 78.507 122.027 129.707-115.2 158.72-269.653 249.173-425.813 249.173-25.6 0-51.2-3.413-76.8-8.533l-70.827 69.12c47.787 14.507 97.28 22.187 147.627 22.187 193.707 0 372.053-110.933 499.2-289.28 17.067-23.040 17.067-60.587 0-83.627v0-1.707z" />
<glyph unicode="&#xe91c;" glyph-name="filter" d="M384 533.333c70.827 0 128 57.173 128 128s-57.173 128-128 128-128-57.173-128-128 57.173-128 128-128zM1024 618.667h-430.933c-19.627-97.28-105.813-170.667-209.067-170.667s-189.44 73.387-209.067 170.667h-174.933v85.333h174.933c19.627 97.28 105.813 170.667 209.067 170.667s189.44-73.387 209.067-170.667h430.933v-85.333zM0 192v85.333h430.933c19.627 97.28 105.813 170.667 209.067 170.667s189.44-73.387 209.067-170.667h174.933v-85.333h-174.933c-19.627-97.28-105.813-170.667-209.067-170.667s-189.44 73.387-209.067 170.667h-430.933zM768 234.667c0 70.827-57.173 128-128 128s-128-57.173-128-128 57.173-128 128-128 128 57.173 128 128z" />
<glyph unicode="&#xe91d;" glyph-name="express-shipping" d="M256 533.333h-256v85.333h256v-85.333zM341.333 448h-341.333v-85.333h341.333v85.333zM170.667 874.667v-170.667h85.333v85.333h682.667v-682.667h-682.667v85.333h170.667v85.333h-426.667v-85.333h170.667v-170.667h853.333v853.333h-853.333zM725.333 533.333c23.893 0 42.667 18.773 42.667 42.667s-18.773 42.667-42.667 42.667h-256c-23.893 0-42.667-18.773-42.667-42.667s18.773-42.667 42.667-42.667h256z" />
<glyph unicode="&#xe91e;" glyph-name="error" d="M469.333 789.333c211.627 0 384-172.373 384-384s-172.373-384-384-384-384 172.373-384 384 172.373 384 384 384zM469.333 874.667c-259.413 0-469.333-209.92-469.333-469.333s209.92-469.333 469.333-469.333 469.333 209.92 469.333 469.333-209.92 469.333-469.333 469.333v0zM469.333 192c-23.893 0-42.667-18.773-42.667-42.667s18.773-42.667 42.667-42.667 42.667 18.773 42.667 42.667-18.773 42.667-42.667 42.667v0zM469.333 704c-23.893 0-42.667-18.773-42.667-42.667v-341.333c0-23.893 19.627-42.667 42.667-42.667s42.667 18.773 42.667 42.667v341.333c0 23.893-19.627 42.667-42.667 42.667v0z" />
<glyph unicode="&#xe91f;" glyph-name="download" d="M42.667 234.667c23.893 0 42.667-18.773 42.667-42.667v-85.333c0-70.827 14.507-85.333 85.333-85.333h597.333c70.827 0 85.333 14.507 85.333 85.333v85.333c0 23.893 18.773 42.667 42.667 42.667s42.667-18.773 42.667-42.667v-85.333c0-117.76-52.907-170.667-170.667-170.667h-597.333c-117.76 0-170.667 52.907-170.667 170.667v85.333c0 23.893 18.773 42.667 42.667 42.667zM755.2 463.36l-256-258.56c-17.067-17.067-44.373-17.067-60.587 0l-256 258.56c-17.067 17.067-17.067 40.96 0 57.173 17.067 17.067 40.96 17.067 57.173 0l186.027-181.76v578.56c0 23.893 18.773 42.667 42.667 42.667s42.667-19.627 42.667-42.667v-578.56l186.027 181.76c17.067 17.067 40.96 17.067 57.173 0s17.067-40.96 0-57.173v0z" />
<glyph unicode="&#xe920;" glyph-name="date-picker" d="M768 874.667v85.333h-85.333v-85.333h-341.333v85.333h-85.333v-85.333c-93.867 0-170.667-76.8-170.667-170.667v-597.333c0-93.867 76.8-170.667 170.667-170.667h512c93.867 0 170.667 76.8 170.667 170.667v597.333c0 93.867-76.8 170.667-170.667 170.667zM853.333 106.667c0-46.933-38.4-85.333-85.333-85.333h-512c-46.933 0-85.333 38.4-85.333 85.333v426.667h682.667v-426.667zM853.333 618.667h-682.667v85.333c0 46.933 38.4 85.333 85.333 85.333v-85.333h85.333v85.333h341.333v-85.333h85.333v85.333c46.933 0 85.333-38.4 85.333-85.333v-85.333zM768 192c0-47.128-38.205-85.333-85.333-85.333s-85.333 38.205-85.333 85.333c0 47.128 38.205 85.333 85.333 85.333s85.333-38.205 85.333-85.333z" />
<glyph unicode="&#xe921;" glyph-name="copy" d="M853.333 618.667c46.933 0 85.333-38.4 85.333-85.333v-426.667c0-46.933-38.4-85.333-85.333-85.333h-426.667c-46.933 0-85.333 38.4-85.333 85.333v426.667c0 46.933 38.4 85.333 85.333 85.333h426.667zM426.667 704c-93.867 0-170.667-76.8-170.667-170.667v-426.667c0-93.867 76.8-170.667 170.667-170.667h426.667c93.867 0 170.667 76.8 170.667 170.667v426.667c0 93.867-76.8 170.667-170.667 170.667h-426.667zM213.333 874.667c-70.827 0-128-57.173-128-128v-469.333c0-23.893-18.773-42.667-42.667-42.667s-42.667 18.773-42.667 42.667v469.333c0 117.76 95.573 213.333 213.333 213.333h469.333c23.893 0 42.667-18.773 42.667-42.667s-18.773-42.667-42.667-42.667h-469.333z" />
<glyph unicode="&#xe922;" glyph-name="close" d="M597.333 448l408.747 408.747c23.893 23.893 23.893 61.44 0 85.333s-61.44 23.893-85.333 0l-408.747-408.747-408.747 408.747c-23.893 23.893-61.44 23.893-85.333 0s-23.893-61.44 0-85.333l408.747-408.747-408.747-408.747c-23.893-23.893-23.893-61.44 0-85.333s61.44-23.893 85.333 0l408.747 408.747 408.747-408.747c23.893-23.893 61.44-23.893 85.333 0s23.893 61.44 0 85.333l-408.747 408.747z" />
<glyph unicode="&#xe923;" glyph-name="clip-on" d="M810.667 361.813c-43.52 0-83.627-12.8-117.76-35.84-47.787 47.787-110.080 78.507-180.907 78.507-30.72 0-59.733-6.827-87.040-17.067 0 5.973 1.707 11.093 1.707 17.067 0 65.707-30.72 124.587-77.653 163.84 13.653 41.813 39.253 76.8 76.8 98.133 27.307 16.213 58.027 22.187 89.6 21.333-0.853-8.533-2.56-17.92-2.56-26.453 0-117.76 95.573-213.333 213.333-213.333s213.333 95.573 213.333 213.333-95.573 213.333-213.333 213.333c-77.653 0-144.213-41.813-181.76-103.253-54.613 6.827-110.933-1.707-161.28-30.72-52.907-30.72-89.6-77.653-110.080-131.413-18.773 5.12-38.4 9.387-58.88 9.387-117.76 0-213.333-95.573-213.333-213.333 0-47.787 17.067-92.16 43.52-128-27.307-35.84-43.52-79.36-43.52-128 0-117.76 95.573-213.333 213.333-213.333s213.333 95.573 213.333 213.333c0 43.52-13.653 84.48-35.84 117.76 33.28 33.28 75.093 52.907 121.173 52.907s87.893-19.627 121.173-52.907c-22.187-34.133-35.84-74.24-35.84-117.76 0-117.76 95.573-213.333 213.333-213.333s213.333 95.573 213.333 213.333-95.573 213.333-213.333 213.333h-0.853zM213.333 20.48c-70.827 0-128 57.173-128 128 0 26.453 8.533 51.2 22.187 71.68 31.573-17.92 67.413-29.013 105.813-29.013s74.24 11.093 105.813 29.013c13.653-20.48 22.187-45.227 22.187-71.68 0-70.827-57.173-128-128-128zM810.667 20.48c-70.827 0-128 57.173-128 128s57.173 128 128 128 128-57.173 128-128-57.173-128-128-128z" />
<glyph unicode="&#xe924;" glyph-name="certified" d="M936.107 448c0 0-56.32-69.12-56.32-69.12-23.040-28.16-34.133-64.853-31.573-101.547l6.827-90.453-84.48-21.333c-34.987-8.533-64-30.72-82.773-62.293l-45.227-77.653-80.213 34.987c-32.427 14.507-69.12 14.507-101.547 0l-80.213-34.987-45.227 77.653c-18.773 31.573-48.64 53.76-82.773 62.293l-84.48 21.333 6.827 90.453c2.56 36.693-8.533 73.387-31.573 101.547l-56.32 69.12 56.32 69.12c23.040 28.16 34.133 64.853 31.573 101.547l-6.827 90.453 84.48 21.333c34.987 8.533 64 30.72 82.773 62.293l45.227 77.653 80.213-34.987c32.427-14.507 69.12-14.507 101.547 0l80.213 34.987 45.227-77.653c18.773-31.573 48.64-53.76 82.773-62.293l84.48-21.333-6.827-90.453c-2.56-36.693 8.533-73.387 31.573-101.547l56.32-69.12zM1011.2 412.16c17.067 20.48 17.067 51.2 0 71.68l-71.68 87.040c-9.387 11.093-13.653 25.6-12.8 40.96l8.533 114.347c1.707 27.307-15.36 52.053-40.107 58.027l-106.667 26.453c-13.653 3.413-25.6 12.8-33.28 24.747l-57.173 98.133c-13.653 23.040-41.813 32.427-65.707 22.187l-100.693-44.373c-12.8-5.973-27.307-5.973-40.96 0l-100.693 44.373c-23.893 10.24-52.053 0-65.707-22.187l-57.173-98.133c-7.68-12.8-19.627-21.333-33.28-24.747l-106.667-26.453c-25.6-5.973-42.667-30.72-40.107-58.027l8.533-114.347c0-14.507-3.413-29.013-12.8-40.96l-71.68-87.040c-17.067-20.48-17.067-51.2 0-71.68l71.68-87.040c9.387-11.093 13.653-25.6 12.8-40.96l-8.533-114.347c-1.707-27.307 15.36-52.053 40.107-58.027l106.667-26.453c13.653-3.413 25.6-12.8 33.28-24.747l57.173-98.133c13.653-23.040 41.813-32.427 65.707-22.187l100.693 44.373c12.8 5.973 27.307 5.973 40.96 0l100.693-44.373c23.893-10.24 52.053-0.853 65.707 22.187l57.173 98.133c7.68 12.8 19.627 21.333 33.28 24.747l106.667 26.453c25.6 5.973 42.667 30.72 40.107 58.027l-8.533 114.347c0 14.507 3.413 29.013 12.8 40.96l71.68 87.040zM470.187 259.413l-157.867 157.867c-17.067 17.067-17.067 43.52 0 60.587s43.52 17.067 60.587 0l98.133-98.133 183.467 183.467c17.067 17.067 43.52 17.067 60.587 0s17.067-43.52 0-60.587l-243.2-243.2s-1.707 0-1.707 0z" />
<glyph unicode="&#xe925;" glyph-name="camera" d="M853.333 789.333h-84.48c0 34.987-10.24 70.827-34.133 102.4-32.427 42.667-82.773 68.267-136.533 68.267h-170.667c-53.76 0-104.107-25.6-136.533-68.267-23.893-31.573-34.987-67.413-34.133-102.4h-84.48c-93.867 0-170.667-76.8-170.667-170.667v-426.667c0-93.867 76.8-170.667 170.667-170.667h117.76c59.733-52.053 137.387-85.333 223.573-85.333s162.987 33.28 223.573 85.333h117.76c93.867 0 170.667 76.8 170.667 170.667v426.667c0 93.867-76.8 170.667-170.667 170.667h-1.707zM358.4 840.533c16.213 21.333 41.813 34.133 68.267 34.133h170.667c26.453 0 52.053-12.8 68.267-34.133 11.947-16.213 17.067-34.133 17.067-51.2h-342.187c0 17.067 5.12 34.987 17.067 51.2h0.853zM256 277.333c0 140.8 115.2 256 256 256s256-115.2 256-256-115.2-256-256-256-256 115.2-256 256zM938.667 192c0-46.933-38.4-85.333-85.333-85.333h-47.787c29.013 50.347 47.787 108.373 47.787 170.667 0 188.587-152.747 341.333-341.333 341.333s-341.333-152.747-341.333-341.333c0-62.293 17.92-120.32 47.787-170.667h-47.787c-46.933 0-85.333 38.4-85.333 85.333v426.667c0 46.933 38.4 85.333 85.333 85.333h682.667c46.933 0 85.333-38.4 85.333-85.333v-426.667z" />
<glyph unicode="&#xe926;" glyph-name="frameType-rimless" horiz-adv-x="2389" d="M738.133 809.813c-41.813 26.453-87.893 45.227-137.387 55.467l11.947 84.48 5.973-1.707c58.027-12.8 113.493-34.987 163.84-66.56l-45.227-72.533zM425.813 29.867l-17.067-83.627c34.133-6.827 69.12-11.093 104.107-11.093 24.747 0 49.493 1.707 73.387 5.12l-12.8 84.48c-47.787-6.827-98.987-5.973-147.627 4.267zM714.24 71.68l40.107-75.093c52.907 28.16 99.84 65.707 139.093 110.080l-64 57.173c-33.28-36.693-72.533-67.413-116.053-91.307zM435.2 954.027c-58.88-8.533-116.053-28.16-168.107-56.32l40.96-75.093c43.52 23.893 91.307 40.107 139.947 46.933l-12.8 84.48zM85.333 459.093l-85.333 2.56v-14.507c0-54.613 8.533-109.227 26.453-161.28l81.067 27.307c-14.507 43.52-22.187 88.747-22.187 134.827v11.947zM192 730.453l-64 56.32c-39.253-45.227-70.827-95.573-93.013-151.040l79.36-31.573c17.92 46.080 44.373 88.747 77.653 126.293zM177.493 182.613l-66.56-52.907c37.547-46.933 81.92-87.040 132.267-117.76l44.373 72.533c-42.667 26.453-79.36 58.88-110.080 98.133zM929.28 359.253c-5.12-23.893-11.947-47.787-21.333-69.973l79.36-31.573c11.093 27.307 19.627 55.467 25.6 83.627 5.973 29.867 10.24 59.733 11.093 89.6l-85.333 2.56c-0.853-24.747-4.267-50.347-9.387-75.093zM2353.493 635.733c-22.187 55.467-52.907 106.667-93.013 151.040l-64-56.32c33.28-37.547 58.88-80.213 77.653-126.293l79.36 31.573zM1879.040 21.333c-21.333 0.853-41.813 1.707-62.293 4.267l-11.947-84.48c25.6-3.413 49.493-5.973 75.093-5.12 34.133 0 69.12 3.413 102.4 10.24l-17.067 83.627c-28.16-5.973-56.32-8.533-85.333-8.533zM1390.080 606.72l81.067-26.453c15.36 47.787 38.4 91.307 69.12 130.56l-67.413 52.907c-9.387-11.947-17.067-25.6-25.6-39.253-75.093 40.96-162.133 64.853-254.293 64.853s-179.2-23.893-254.293-64.853c-8.533 12.8-16.213 26.453-25.6 39.253l-67.413-52.907c30.72-39.253 54.613-83.627 69.973-130.56l81.067 26.453c-5.12 14.507-11.947 28.16-17.92 41.813 63.147 34.987 135.68 55.467 214.187 55.467s150.187-20.48 213.333-55.467c-5.973-13.653-12.8-27.307-17.92-41.813zM1954.133 954.027h-5.973s-6.827-84.48-6.827-84.48c49.493-7.68 96.427-23.040 139.947-46.933l40.96 75.093c-52.053 28.16-109.227 47.787-167.253 56.32zM2389.333 461.653l-85.333-1.707v-11.093c0-21.333-1.707-42.667-4.267-64-3.413-23.893-9.387-47.787-17.067-70.827l81.067-26.453c9.387 27.307 16.213 56.32 20.48 85.333 4.267 25.6 5.973 51.2 5.973 76.8v13.653zM2101.76 85.333l45.227-72.533c51.2 31.573 95.573 70.827 132.267 117.76l-66.56 52.907c-30.72-39.253-68.267-71.68-110.933-98.133zM1365.333 430.933c1.707-59.733 14.507-118.613 36.693-174.080l79.36 31.573c-18.773 46.080-29.013 94.72-30.72 145.067l-85.333-2.56zM1495.893 106.667c40.107-44.373 87.040-81.92 139.093-110.080l40.107 75.093c-43.52 23.893-82.773 54.613-116.053 91.307l-64-57.173zM1605.973 882.347l45.227-72.533c42.667 26.453 88.747 45.227 137.387 55.467l-17.92 83.627c-58.027-12.8-113.493-34.987-164.693-66.56z" />
<glyph unicode="&#xe927;" glyph-name="frameType-semi-rim" horiz-adv-x="2389" d="M751.787 94.72l47.787-70.827c51.2 34.987 95.573 78.507 131.413 129.707l-69.973 48.64c-29.867-42.667-66.56-79.36-110.080-108.373zM456.533 24.747l-11.093-84.48c21.333-2.56 43.52-4.267 66.56-4.267 40.107 0 80.213 5.12 118.613 13.653l-19.627 82.773c-49.493-11.947-103.253-14.507-154.453-7.68zM42.667 453.973l-42.667-5.973c0-60.587 10.24-119.467 30.72-175.787l80.213 29.013c-17.067 46.933-25.6 96.427-25.6 151.893h-42.667zM936.107 497.493c1.707-16.213 2.56-33.28 2.56-49.493 0-34.987-4.267-70.827-12.8-104.107l82.773-20.48c10.24 40.96 15.36 82.773 15.36 125.44 0 20.48-0.853 40.107-3.413 59.733l-84.48-10.24zM125.44 112.64c40.96-46.933 89.6-86.187 144.213-116.053l40.107 75.093c-46.080 24.747-86.187 57.173-120.32 96.427l-64-56.32zM2117.12 94.72l47.787-70.827c52.053 34.987 95.573 78.507 131.413 129.707l-69.973 48.64c-29.867-42.667-66.56-79.36-110.080-108.373zM1821.867 24.747l-11.093-84.48c21.333-2.56 43.52-4.267 66.56-4.267 40.107 0 80.213 5.12 118.613 13.653l-19.627 82.773c-49.493-11.947-103.253-14.507-154.453-7.68zM1365.333 448c0-60.587 10.24-119.467 30.72-175.787l80.213 29.013c-17.067 46.933-25.6 96.427-25.6 152.747l-85.333-5.973zM2385.92 507.733l-84.48-10.24c1.707-16.213 2.56-33.28 2.56-49.493 0-34.987-4.267-69.973-12.8-104.107l82.773-20.48c10.24 40.96 15.36 82.773 15.36 124.587 0 20.48-0.853 40.107-3.413 59.733zM1489.92 112.64c40.96-46.933 89.6-86.187 144.213-116.053l40.107 75.093c-46.080 24.747-86.187 57.173-120.32 96.427l-64.853-55.467zM1877.333 874.667c174.933 0 325.12-104.96 390.827-256h91.307c-69.973 198.827-260.267 341.333-482.987 341.333-180.053 0-337.92-93.867-429.227-235.52-75.093 40.96-161.28 64.853-253.44 64.853s-178.347-23.893-253.44-64.853c-91.307 140.8-248.32 235.52-429.227 235.52-221.867 0-411.307-142.507-482.133-341.333h91.307c65.707 151.040 215.893 256 390.827 256s325.12-104.96 390.827-256h91.307c-3.413 10.24-9.387 20.48-13.653 30.72 63.147 34.987 135.68 54.613 213.333 54.613s150.187-19.627 213.333-54.613c-4.267-10.24-9.387-19.627-13.653-30.72h91.307c65.707 151.040 215.893 256 390.827 256z" />
<glyph unicode="&#xe928;" glyph-name="right" d="M664.747 448l-439.467-439.467c-7.68-7.68-12.8-18.773-12.8-29.867 0-23.893 18.773-42.667 42.667-42.667 11.947 0 22.187 5.12 29.867 12.8v0l469.333 469.333c7.68 7.68 12.8 18.773 12.8 29.867s-5.12 22.187-12.8 29.867v0l-468.48 469.333c-7.68 7.68-18.773 12.8-29.867 12.8-23.893 0-42.667-18.773-42.667-42.667 0-11.947 5.12-22.187 12.8-29.867l439.467-439.467h-0.853z" />
<glyph unicode="&#xe929;" glyph-name="down" d="M512 273.92l-439.467 438.613c-7.68 7.68-18.773 12.8-29.867 12.8-23.893 0-42.667-18.773-42.667-42.667 0-11.947 5.12-22.187 12.8-29.867v0l469.333-469.333c7.68-7.68 18.773-12.8 29.867-12.8s22.187 5.12 29.867 12.8v0l469.333 469.333c7.68 7.68 12.8 18.773 12.8 29.867 0 23.893-18.773 42.667-42.667 42.667-11.947 0-22.187-5.12-29.867-12.8l-439.467-439.467z" />
<glyph unicode="&#xe92a;" glyph-name="left" d="M316.587 448l439.467 439.467c7.68 7.68 12.8 18.773 12.8 29.867 0 23.893-18.773 42.667-42.667 42.667-11.947 0-22.187-5.12-29.867-12.8v0l-469.333-469.333c-7.68-7.68-12.8-18.773-12.8-29.867s5.12-22.187 12.8-29.867v0l469.333-469.333c7.68-7.68 18.773-12.8 29.867-12.8 23.893 0 42.667 18.773 42.667 42.667 0 11.947-5.12 22.187-12.8 29.867 0 0-439.467 439.467-439.467 439.467z" />
<glyph unicode="&#xe92b;" glyph-name="up" d="M512 622.080l439.467-439.467c7.68-7.68 18.773-12.8 29.867-12.8 23.893 0 42.667 18.773 42.667 42.667 0 11.947-5.12 22.187-12.8 29.867v0l-469.333 469.333c-7.68 7.68-18.773 12.8-29.867 12.8s-22.187-5.12-29.867-12.8v0l-469.333-469.333c-7.68-7.68-12.8-18.773-12.8-29.867 0-23.893 18.773-42.667 42.667-42.667 11.947 0 22.187 5.12 29.867 12.8 0 0 439.467 439.467 439.467 439.467z" />
<glyph unicode="&#xe92c;" glyph-name="3D" d="M768 960h-768v-768l256-256h768v768l-256 256zM903.68 704h-135.68v135.68l135.68-135.68zM938.667 67.413l-170.667 170.667v380.587h170.667v-551.253zM341.333 277.333v341.333h341.333v-341.333h-341.333zM682.667 874.667v-170.667h-363.52l-172.373 170.667h535.893zM256 645.973v-368.64h-170.667v537.6s170.667-168.96 170.667-168.96zM120.32 192h135.68v-135.68s-135.68 135.68-135.68 135.68zM341.333 192h351.573l170.667-170.667h-522.24v170.667z" />
<glyph unicode="&#xe92d;" glyph-name="wishlist-on" d="M764.587 959.147c-48.64 0-93.867-12.8-135.68-40.96-41.813-26.453-80.213-68.267-116.907-123.733-32.427 53.76-69.973 94.72-112.64 122.027-42.667 28.16-89.6 42.667-139.947 42.667-73.387 0-134.827-27.307-184.32-82.773-50.347-54.613-75.093-123.733-75.093-204.8 0-42.667 6.827-85.333 21.333-127.147 13.653-42.667 39.253-89.6 74.24-142.507 35.84-52.053 83.627-112.64 144.213-180.053s136.533-148.48 229.547-241.493l42.667-43.52 42.667 43.52c93.013 93.867 168.96 174.933 229.547 243.2 60.587 67.413 108.373 127.147 144.213 179.2 34.987 52.907 60.587 99.84 74.24 142.507 14.507 42.667 21.333 85.333 21.333 127.147 0 81.067-24.747 150.187-75.093 204.8-49.493 55.467-110.933 82.773-184.32 82.773v0z" />
<glyph unicode="&#xe92e;" glyph-name="left-arrow" d="M896.853 448h-750.933l354.133 354.133c7.68 7.68 12.8 18.773 12.8 29.867 0 23.893-18.773 42.667-42.667 42.667-11.947 0-22.187-5.12-29.867-12.8v0l-427.52-426.667c-7.68-7.68-12.8-18.773-12.8-29.867s5.12-22.187 12.8-29.867v0l426.667-426.667c7.68-7.68 18.773-12.8 29.867-12.8 23.893 0 42.667 18.773 42.667 42.667 0 11.947-5.12 22.187-12.8 29.867l-354.133 354.133h750.933c23.893 0 42.667 18.773 42.667 42.667s-18.773 42.667-42.667 42.667h0.853z" />
<glyph unicode="&#xe92f;" glyph-name="right-arrow" d="M42.667 362.667h750.080l-354.133-354.133c-7.68-7.68-12.8-18.773-12.8-29.867 0-23.893 18.773-42.667 42.667-42.667 11.947 0 22.187 5.12 29.867 12.8v0l426.667 426.667c7.68 7.68 12.8 18.773 12.8 29.867s-5.12 22.187-12.8 29.867v0l-425.813 426.667c-7.68 7.68-18.773 12.8-29.867 12.8-23.893 0-42.667-18.773-42.667-42.667 0-11.947 5.12-22.187 12.8-29.867l354.133-354.133h-750.933c-23.893 0-42.667-18.773-42.667-42.667s18.773-42.667 42.667-42.667z" />
<glyph unicode="&#xe930;" glyph-name="frameType-full-rim" horiz-adv-x="2389" d="M1877.333 960c-180.907 0-338.773-93.867-430.080-234.667-75.093 40.96-161.28 64-252.587 64s-177.493-23.040-252.587-64c-91.307 140.8-249.173 234.667-430.080 234.667-282.453 0-512-229.547-512-512s229.547-512 512-512 512 229.547 512 512c0 71.68-14.507 139.947-41.813 201.387 63.147 34.133 134.827 54.613 212.48 54.613s149.333-19.627 212.48-54.613c-26.453-62.293-41.813-129.707-41.813-201.387 0-282.453 229.547-512 512-512s512 229.547 512 512-229.547 512-512 512zM512 21.333c-235.52 0-426.667 191.147-426.667 426.667s191.147 426.667 426.667 426.667 426.667-191.147 426.667-426.667-191.147-426.667-426.667-426.667zM1877.333 21.333c-235.52 0-426.667 191.147-426.667 426.667s191.147 426.667 426.667 426.667 426.667-191.147 426.667-426.667-191.147-426.667-426.667-426.667z" />
<glyph unicode="&#xe931;" glyph-name="shapes-rectangular" horiz-adv-x="2389" d="M2218.667 789.333h-682.667c-93.867 0-170.667-76.8-170.667-170.667h-341.333c0 93.867-76.8 170.667-170.667 170.667h-682.667c-93.867 0-170.667-76.8-170.667-170.667v-341.333c0-93.867 76.8-170.667 170.667-170.667h682.667c93.867 0 170.667 76.8 170.667 170.667v256h341.333v-256c0-93.867 76.8-170.667 170.667-170.667h682.667c93.867 0 170.667 76.8 170.667 170.667v341.333c0 93.867-76.8 170.667-170.667 170.667zM938.667 277.333c0-46.933-38.4-85.333-85.333-85.333h-682.667c-46.933 0-85.333 38.4-85.333 85.333v341.333c0 46.933 38.4 85.333 85.333 85.333h682.667c46.933 0 85.333-38.4 85.333-85.333v-341.333zM2304 277.333c0-46.933-38.4-85.333-85.333-85.333h-682.667c-46.933 0-85.333 38.4-85.333 85.333v341.333c0 46.933 38.4 85.333 85.333 85.333h682.667c46.933 0 85.333-38.4 85.333-85.333v-341.333z" />
<glyph unicode="&#xe932;" glyph-name="shapes-irregular" horiz-adv-x="2389" d="M2380.8 582.827c-20.48 62.293-72.533 104.107-135.68 109.227l-66.56 5.973c-58.88 5.12-109.227 42.667-131.413 98.987l-25.6 64v2.56s-21.333 34.987-21.333 34.987c-29.013 39.253-73.387 62.293-122.88 62.293s-93.867-23.040-122.88-62.293l-19.627-34.987v-2.56s-26.453-64-26.453-64c-22.187-56.32-73.387-93.867-131.413-98.987l-66.56-5.12c-62.293-5.12-113.493-46.080-133.973-106.667-56.32 21.333-116.907 34.133-180.907 34.133s-123.733-11.947-180.053-33.28c-21.333 60.587-72.533 101.547-133.973 106.667l-66.56 5.973c-58.88 5.12-109.227 42.667-131.413 98.987l-25.6 64s0 1.707-0.853 2.56l-19.627 34.987c-29.013 39.253-73.387 62.293-122.88 62.293s-93.867-23.040-122.88-62.293l-19.627-34.987s0-1.707-0.853-2.56l-25.6-64c-23.040-56.32-73.387-93.867-131.413-98.987l-66.56-5.12c-63.147-5.12-114.347-46.933-135.68-109.227-21.333-64-3.413-130.56 46.080-174.933l51.2-45.227c44.373-39.253 64-100.693 50.347-160.427l-15.36-67.413c-15.36-66.56 8.533-131.413 62.293-169.813 51.2-35.84 118.613-38.4 170.667-5.12l57.173 35.84c50.347 31.573 112.64 31.573 162.987 0l57.173-35.84c24.747-15.36 52.907-23.040 81.067-23.040 31.573 0 62.293 9.387 89.6 29.013 53.76 38.4 77.653 103.253 62.293 169.813l-15.36 67.413c-13.653 58.88 5.973 120.32 50.347 160.427l51.2 45.227c26.453 23.893 43.52 54.613 50.347 87.040 52.907 23.893 111.787 37.547 174.080 37.547s122.027-14.507 175.787-38.4c6.827-32.427 23.893-63.147 50.347-86.187l51.2-45.227c44.373-39.253 64-100.693 50.347-160.427l-15.36-67.413c-15.36-66.56 8.533-131.413 62.293-169.813 27.307-18.773 58.027-29.013 89.6-29.013 28.16 0 56.32 7.68 81.067 23.040l57.173 35.84c50.347 31.573 112.64 31.573 162.987 0l57.173-35.84c52.907-33.28 119.467-30.72 170.667 5.12 53.76 38.4 77.653 103.253 62.293 169.813l-15.36 67.413c-13.653 58.88 5.973 120.32 50.347 160.427l51.2 45.227c49.493 44.373 67.413 110.933 46.080 174.933zM912.213 471.893l-51.2-45.227c-68.267-60.587-97.28-153.6-76.8-243.2l15.36-67.413c7.68-32.427-3.413-63.147-29.013-81.067-17.92-12.8-47.787-20.48-75.947-2.56l-57.173 35.84c-39.253 24.747-82.773 37.547-127.147 37.547s-87.893-12.8-127.147-37.547l-57.173-35.84c-28.16-17.92-57.173-10.24-75.947 2.56-25.6 17.92-36.693 48.64-29.013 81.067l15.36 67.413c20.48 89.6-8.533 182.613-76.8 243.2l-51.2 45.227c-23.893 21.333-32.427 52.907-22.187 83.627 7.68 23.040 28.16 48.64 61.44 51.2l66.56 5.12c91.307 7.68 168.96 65.707 203.947 151.893l25.6 64c23.040 57.173 106.667 57.173 129.707 0l25.6-64c34.987-86.187 112.64-145.067 203.947-151.893l66.56-5.973c34.133-2.56 53.76-28.16 61.44-51.2 10.24-30.72 2.56-62.293-22.187-83.627zM2277.547 471.893l-51.2-45.227c-68.267-60.587-97.28-153.6-76.8-243.2l15.36-67.413c7.68-32.427-3.413-63.147-29.013-81.067-17.92-12.8-47.787-20.48-75.947-2.56l-57.173 35.84c-78.507 49.493-175.787 49.493-254.293 0l-57.173-35.84c-28.16-17.92-57.173-10.24-75.947 2.56-25.6 17.92-36.693 48.64-29.013 81.067l15.36 67.413c20.48 89.6-8.533 182.613-76.8 243.2l-51.2 45.227c-23.893 21.333-32.427 52.907-22.187 83.627 7.68 23.040 28.16 48.64 61.44 51.2l66.56 5.12c91.307 7.68 168.96 65.707 203.947 151.893l10.24 24.747s16.213 39.253 16.213 39.253c23.040 57.173 106.667 57.173 129.707 0l16.213-39.253s10.24-24.747 10.24-24.747c34.987-86.187 112.64-145.067 203.947-151.893l66.56-5.973c33.28-2.56 53.76-28.16 61.44-51.2 10.24-30.72 1.707-62.293-22.187-83.627z" />
<glyph unicode="&#xe933;" glyph-name="shapes-butterfly" horiz-adv-x="2389" d="M2213.547 960h-672.427c-97.28 0-175.787-76.8-175.787-170.667v-85.333h-341.333v85.333c0 93.867-78.507 170.667-175.787 170.667h-672.427c-108.373 0-191.147-94.72-173.227-198.827l68.267-397.653c42.667-246.613 262.827-427.52 520.533-427.52h256.853c97.28 0 175.787 76.8 175.787 170.667v512h341.333v-512c0-93.867 78.507-170.667 175.787-170.667h256.853c257.707 0 477.867 180.907 520.533 427.52l68.267 397.653c17.92 104.107-64.853 198.827-173.227 198.827zM938.667 106.667c0-44.373-38.4-85.333-90.453-85.333h-256.853c-218.453 0-401.92 152.747-436.907 356.693l-68.267 397.653c-8.533 48.64 30.72 98.987 89.6 98.987h672.427c52.907 0 90.453-40.96 90.453-85.333v-682.667zM2234.88 378.027c-34.987-203.947-218.453-356.693-436.907-356.693h-256.853c-52.907 0-90.453 40.96-90.453 85.333v682.667c0 44.373 38.4 85.333 90.453 85.333h672.427c58.88 0 98.133-50.347 89.6-98.987l-68.267-397.653z" />
<glyph unicode="&#xe934;" glyph-name="shapes-cat-eye" horiz-adv-x="2389" d="M2327.040 789.333h-791.040c-93.867 0-170.667-76.8-170.667-170.667h-341.333c0 93.867-76.8 170.667-170.667 170.667h-791.040c-34.133 0-62.293-28.16-62.293-62.293 0-343.040 278.187-620.373 620.373-620.373h310.613c51.2 0 93.013 41.813 93.013 93.013v333.653h341.333v-333.653c0-51.2 41.813-93.013 93.013-93.013h310.613c343.040 0 620.373 278.187 620.373 620.373 0 34.133-28.16 62.293-62.293 62.293zM938.667 199.68c0-4.267-3.413-7.68-7.68-7.68h-310.613c-287.573 0-522.24 226.987-535.040 512h767.147c46.933 0 85.333-38.4 85.333-85.333v-418.987zM1768.96 192h-310.613c-4.267 0-7.68 3.413-7.68 7.68v418.987c0 46.933 38.4 85.333 85.333 85.333h767.147c-11.947-285.013-246.613-512-535.040-512z" />
<glyph unicode="&#xe935;" glyph-name="shapes-aviator" horiz-adv-x="2389" d="M2218.667 960h-2048c-93.867 0-170.667-76.8-170.667-170.667v-512c0-188.587 152.747-341.333 341.333-341.333 377.173 0 682.667 305.493 682.667 682.667h341.333c0-377.173 305.493-682.667 682.667-682.667 188.587 0 341.333 152.747 341.333 341.333v512c0 93.867-76.8 170.667-170.667 170.667zM938.667 618.667c0-330.24-267.093-597.333-597.333-597.333-141.653 0-256 114.347-256 256v512c0 46.933 38.4 85.333 85.333 85.333h682.667c46.933 0 85.333-38.4 85.333-85.333v-170.667zM1365.333 704h-341.333v85.333c0 31.573-9.387 59.733-23.893 85.333h388.267c-14.507-25.6-23.893-53.76-23.893-85.333v-85.333zM2304 277.333c0-141.653-114.347-256-256-256-330.24 0-597.333 267.093-597.333 597.333v170.667c0 46.933 38.4 85.333 85.333 85.333h682.667c46.933 0 85.333-38.4 85.333-85.333v-512z" />
<glyph unicode="&#xe936;" glyph-name="shapes-mask" horiz-adv-x="2389" d="M2216.107 874.667h-2042.88c-51.2 0-90.453-42.667-86.187-93.013l55.467-682.667c4.267-44.373 41.813-77.653 86.187-77.653h537.6c26.453 0 51.2 11.947 67.413 32.427l158.72 196.267c104.107 128 301.227 128 405.333 0l158.72-196.267c16.213-20.48 40.96-32.427 67.413-32.427h537.6c44.373 0 81.92 33.28 86.187 77.653l55.467 682.667c4.267 50.347-34.987 93.013-86.187 93.013zM173.227 960h2042.88c101.547 0 181.76-86.187 172.373-186.027l-55.467-682.667c-7.68-87.893-82.773-155.307-172.373-155.307h-537.6c-52.907 0-102.4 23.893-134.827 64l-158.72 196.267c-69.12 85.333-200.533 85.333-270.507 0l-158.72-196.267c-32.427-40.107-82.773-64-134.827-64h-537.6c-89.6 0-163.84 67.413-172.373 155.307l-55.467 682.667c-8.533 99.84 71.68 186.027 173.227 186.027z" />
<glyph unicode="&#xe937;" glyph-name="shapes-oval" horiz-adv-x="2389" d="M1877.333 789.333c-178.347 0-335.36-60.587-426.667-153.6-75.093 43.52-162.133 68.267-256 68.267s-180.053-24.747-256-68.267c-91.307 92.16-248.32 153.6-426.667 153.6-282.453 0-512-152.747-512-341.333s229.547-341.333 512-341.333 512 152.747 512 341.333c0 41.813-11.947 82.773-33.28 119.467v0c60.587 32.427 129.707 51.2 203.093 51.2s143.36-18.773 203.093-51.2v0c-21.333-37.547-33.28-77.653-33.28-119.467 0-188.587 229.547-341.333 512-341.333s512 152.747 512 341.333-229.547 341.333-512 341.333h1.707zM826.88 277.333c-76.8-51.2-187.733-85.333-314.88-85.333s-238.080 34.133-314.88 85.333c-77.653 51.2-111.787 113.493-111.787 170.667s34.987 118.613 111.787 170.667c76.8 51.2 187.733 85.333 314.88 85.333s238.080-34.133 314.88-85.333c77.653-51.2 111.787-113.493 111.787-170.667s-34.987-118.613-111.787-170.667zM2192.213 277.333c-76.8-51.2-187.733-85.333-314.88-85.333s-238.080 34.133-314.88 85.333c-77.653 51.2-111.787 113.493-111.787 170.667s34.987 118.613 111.787 170.667c76.8 51.2 187.733 85.333 314.88 85.333s238.080-34.133 314.88-85.333c77.653-51.2 111.787-113.493 111.787-170.667s-34.987-118.613-111.787-170.667z" />
<glyph unicode="&#xe938;" glyph-name="shapes-round" horiz-adv-x="2389" d="M1877.333 960c-184.32 0-344.747-97.28-435.2-243.2 1.707 2.56 2.56 4.267 3.413 6.827-74.24 41.813-159.573 65.707-250.88 65.707s-176.64-23.893-250.88-65.707c1.707-1.707 2.56-4.267 3.413-6.827-90.453 145.92-250.88 243.2-435.2 243.2-282.453 0-512-229.547-512-512s229.547-512 512-512 512 229.547 512 512c0 71.68-14.507 139.093-40.96 201.387 0 0 0 0 0-0.853 62.293 35.84 134.827 55.467 211.627 55.467s149.333-20.48 211.627-55.467c0 0 0 0 0 0.853-26.453-61.44-40.96-129.707-40.96-201.387 0-282.453 229.547-512 512-512s512 229.547 512 512-229.547 512-512 512zM512 21.333c-235.52 0-426.667 191.147-426.667 426.667s191.147 426.667 426.667 426.667 426.667-191.147 426.667-426.667-191.147-426.667-426.667-426.667zM1877.333 21.333c-235.52 0-426.667 191.147-426.667 426.667s191.147 426.667 426.667 426.667 426.667-191.147 426.667-426.667-191.147-426.667-426.667-426.667z" />
<glyph unicode="&#xe939;" glyph-name="auto-complete" d="M1012.053 8.533l-866.987 866.133h671.573c11.093 0 22.187 4.267 29.867 11.947 17.067 17.067 17.067 43.52 0 60.587-8.533 8.533-19.627 11.947-29.867 11.947h-774.827c-10.24 0.853-22.187-3.413-29.867-11.093s-11.947-19.627-11.947-29.867v0-773.973c0-11.093 4.267-22.187 11.947-29.867 17.067-17.067 43.52-17.067 60.587 0 8.533 8.533 11.947 19.627 11.947 29.867v670.72s866.133-866.133 866.133-866.133c17.067-17.067 43.52-17.067 60.587 0s17.067 43.52 0 60.587v0z" />
<glyph unicode="&#xe93a;" glyph-name="compass" d="M512 960c-235.52 0-426.667-191.147-426.667-426.667s172.373-424.107 426.667-597.333c254.293 173.227 426.667 361.813 426.667 597.333s-191.147 426.667-426.667 426.667zM512 448c-93.867 0-170.667 76.8-170.667 170.667s76.8 170.667 170.667 170.667 170.667-76.8 170.667-170.667-76.8-170.667-170.667-170.667z" />
<glyph unicode="&#xe93b;" glyph-name="lens-effect" d="M830.578 834.844c108.089 0 193.422-85.333 193.422-193.422v-512c0-108.089-85.333-193.422-193.422-193.422h-512c-108.089 0-193.422 85.333-193.422 193.422v318.578h130.844v-318.578c0-34.133 28.444-62.578 62.578-62.578h512c34.133 0 62.578 28.444 62.578 62.578v512c0 34.133-28.444 62.578-62.578 62.578h-318.578v130.844zM540.444 573.156l51.2-108.089 108.089-51.2-108.089-51.2-51.2-108.089-51.2 108.089-102.4 56.889 108.089 51.2zM193.422 960l62.578-125.156 125.156-62.578-125.156-68.267-62.578-130.844-68.267 130.844-125.156 62.578 125.156 62.578z" />
<glyph unicode="&#xe93c;" glyph-name="logged-user" d="M853.333 661.333c0 23.893-18.773 42.667-42.667 42.667-11.947 0-22.187-5.12-29.867-12.8l-396.8-396.8-140.8 140.8c-7.68 7.68-18.773 12.8-29.867 12.8-23.893 0-42.667-18.773-42.667-42.667 0-11.947 5.12-22.187 12.8-29.867l170.667-170.667s8.533-6.827 13.653-9.387c5.12-2.56 11.093-3.413 16.213-3.413s11.093 0.853 16.213 3.413c5.12 2.56 10.24 5.12 13.653 9.387l426.667 426.667c7.68 7.68 12.8 18.773 12.8 29.867z" />
<glyph unicode="&#xe93d;" glyph-name="facebook" d="M1024 444.587c0 284.16-229.547 515.413-512 515.413s-512-230.4-512-515.413c0-256.853 186.88-470.187 431.787-508.587v360.107h-129.707v148.48h129.707v113.493c0 128.853 76.8 200.533 193.707 200.533 56.32 0 114.347-10.24 114.347-10.24v-127.147h-64.853c-64 0-83.627-40.107-83.627-80.213v-96.427h141.653l-23.040-148.48h-119.467v-360.107c244.907 38.4 431.787 251.733 431.787 508.587z" />
<glyph unicode="&#xe93e;" glyph-name="shapes-sport" horiz-adv-x="2389" d="M2218.667 874.667c46.933 0 85.333-38.4 85.333-85.333v-320.853c0-32.427-17.92-61.44-46.933-75.947l-5.973-2.56-5.12-3.413-485.547-339.627c-34.133-16.213-70.827-24.747-108.373-24.747-84.48 0-162.987 40.96-210.773 110.080l-48.64 101.547c-37.547 77.653-113.493 125.44-198.827 125.44-84.48 0-160.427-46.933-197.973-122.88l-52.907-106.667c-47.787-67.413-125.44-108.373-209.067-108.373-38.4 0-75.093 8.533-109.227 24.747l-486.4 342.187-5.973 2.56c-29.013 14.507-46.933 43.52-46.933 75.947v322.56c0 46.933 38.4 85.333 85.333 85.333h2048zM2218.667 960h-2048c-93.867 0-170.667-76.8-170.667-170.667v-321.707c0-64.853 36.693-123.733 93.867-152.747l485.547-343.040c48.64-24.747 101.547-36.693 153.6-36.693 110.080 0 217.6 53.76 282.453 150.187l55.467 112.64c24.747 50.347 73.387 75.947 122.027 75.947s97.28-25.6 122.027-76.8l52.053-107.52c64.853-98.133 173.227-152.747 285.013-152.747 51.2 0 103.253 11.947 151.893 35.84l490.667 343.040c58.027 29.013 94.72 87.893 94.72 152.747v320.853c0 93.867-76.8 170.667-170.667 170.667v0z" />
<glyph unicode="&#xe93f;" glyph-name="minus" d="M853.333 490.667h-682.667v-85.333h682.667v85.333z" />
<glyph unicode="&#xe940;" glyph-name="plus" d="M853.333 490.667h-298.667v298.667h-85.333v-298.667h-298.667v-85.333h298.667v-298.667h85.333v298.667h298.667v85.333z" />
<glyph unicode="&#xe941;" glyph-name="coin" d="M581.12 192h74.752v45.568c35.328 5.632 66.048 17.408 91.648 35.84s38.4 45.568 38.4 81.408c0 25.6-8.704 49.152-25.6 70.144s-51.2 39.936-102.4 55.808c-42.496 12.288-72.192 23.040-88.576 31.744s-24.576 21.504-24.576 37.376 6.656 28.16 19.968 37.376 32.256 13.824 56.832 13.824c22.528 0 40.448-4.608 53.248-14.336s22.016-20.992 27.648-35.328l68.096 23.552c-7.68 21.504-22.016 39.936-43.008 55.808s-44.032 24.576-69.632 26.624v45.568h-74.752v-45.568c-35.328-6.656-63.488-19.968-83.456-40.448s-29.696-42.496-29.696-67.584c0-28.672 9.728-51.712 29.184-69.632s50.176-32.768 92.16-45.568c45.056-13.824 75.776-26.624 93.184-37.376s26.112-25.088 26.112-43.008c0-19.968-8.192-34.816-25.088-44.544s-36.864-14.336-60.416-14.336-44.032 6.144-62.464 18.944-31.232 31.232-39.936 56.32l-70.656-23.552c9.728-29.184 25.6-52.736 46.592-70.656s48.128-30.208 81.408-36.864v-47.616zM614.4 755.2c169.472 0 307.2-137.728 307.2-307.2s-137.728-307.2-307.2-307.2-307.2 137.728-307.2 307.2 137.728 307.2 307.2 307.2zM614.4 857.6c-226.304 0-409.6-183.296-409.6-409.6s183.296-409.6 409.6-409.6 409.6 183.296 409.6 409.6-183.296 409.6-409.6 409.6v0zM409.6 755.2v102.4c-226.304 0-409.6-183.296-409.6-409.6s183.296-409.6 409.6-409.6v102.4c-169.472 0-307.2 137.728-307.2 307.2s137.728 307.2 307.2 307.2z" />
<glyph unicode="&#xe942;" glyph-name="vto" d="M85.333 618.667h-85.333v256c0 46.933 38.4 85.333 85.333 85.333h256v-85.333h-256v-256zM938.667 277.333h85.333v-256c0-46.933-38.4-85.333-85.333-85.333h-256v85.333h128c0 65.707-29.867 116.907-81.92 153.6-52.907 37.547-128.853 59.733-216.747 59.733s-163.84-22.187-216.747-59.733c-52.053-36.693-81.92-87.893-81.92-153.6h128v-85.333h-256c-46.933 0-85.333 38.4-85.333 85.333v256h85.333v-256h42.667c0 96.427 46.080 172.373 117.76 223.573 42.667 29.867 93.867 49.493 149.333 62.293-82.773 42.667-139.093 127.147-139.093 226.987 0 141.653 114.347 256 256 256s256-114.347 256-256c0-98.987-57.173-184.32-139.093-226.987 55.467-11.947 106.667-31.573 149.333-62.293 71.68-51.2 117.76-127.147 117.76-223.573h42.667v256zM512 362.667c93.867 0 170.667 76.8 170.667 170.667s-76.8 170.667-170.667 170.667-170.667-76.8-170.667-170.667 76.8-170.667 170.667-170.667zM938.667 960h-256v-85.333h256v-256h85.333v256c0 46.933-38.4 85.333-85.333 85.333z" />
</font>
</defs>
</svg>
